Autor Tópico: Erro na execução do ffmpeg  (Lida 3568 vezes)

Offline mdf.ubuntu

  • Usuário Ubuntu
  • *
  • Mensagens: 2
    • Ver perfil
Erro na execução do ffmpeg
« Online: 13 de Maio de 2012, 17:06 »
Boa tarde,

estou tentando extrair o som de um vídeo do YouTube com o ffmpeg, usando o comando

ffmpeg -i arq_entrada.mpeg4 saida.mp3

mas recebo de volta a mensagem

 Duration: 00:03:44.11, start: 0.000000, bitrate: 432 kb/s
    Stream #0.0(und): Audio: aac, 44100 Hz, stereo, s16, 124 kb/s
    Stream #0.1(und): Video: h264, yuv420p, 352x264 [PAR 1:1 DAR 4:3], 302 kb/s, 25 fps, 25 tbr, 24996 tbn, 49992 tbc
Output #0, mp3, to 'when.mp3':
    Stream #0.0(und): Audio: 0x0000, 44100 Hz, stereo, s16, 64 kb/s
Stream mapping:
  Stream #0.0 -> #0.0
Encoder (codec id 86017) not found for output stream #0.0

tentei encontrar o tal encoder que não encontrado, mas parece que está tudo OK.

Será que alguém já teve esse problema ?

Também tentei extrair de um vídeo no formato FLV, mas o problema continua o mesmo.

Marcelo

Offline EdvaldoSCruz

  • Usuário Ubuntu
  • *
  • Mensagens: 2.327
  • Deus é bom e JESUS CRISTO é o filho dEle.(Jo14:23)
    • Ver perfil
Re: Erro na execução do ffmpeg
« Resposta #1 Online: 06 de Junho de 2012, 20:24 »
Boa tarde,

estou tentando extrair o som de um vídeo do YouTube com o ffmpeg, usando o comando

ffmpeg -i arq_entrada.mpeg4 saida.mp3

mas recebo de volta a mensagem

 Duration: 00:03:44.11, start: 0.000000, bitrate: 432 kb/s
    Stream #0.0(und): Audio: aac, 44100 Hz, stereo, s16, 124 kb/s
    Stream #0.1(und): Video: h264, yuv420p, 352x264 [PAR 1:1 DAR 4:3], 302 kb/s, 25 fps, 25 tbr, 24996 tbn, 49992 tbc
Output #0, mp3, to 'when.mp3':
    Stream #0.0(und): Audio: 0x0000, 44100 Hz, stereo, s16, 64 kb/s
Stream mapping:
  Stream #0.0 -> #0.0
Encoder (codec id 86017) not found for output stream #0.0

tentei encontrar o tal encoder que não encontrado, mas parece que está tudo OK.

Será que alguém já teve esse problema ?

Também tentei extrair de um vídeo no formato FLV, mas o problema continua o mesmo.

Marcelo


Eu uso o Firefox e depois o Winff para isso.
Ignorância é não aceitar e não submeter-se a CRISTO JESUS.
Para os Iniciantes, como eu, links de solucionar problemas rapidamente.

Offline mdf.ubuntu

  • Usuário Ubuntu
  • *
  • Mensagens: 2
    • Ver perfil
Re: Erro na execução do ffmpeg
« Resposta #2 Online: 29 de Junho de 2012, 07:04 »
segue a resposta que me enviaram na lista Ubuntu BR e funcionou perfeitamente

Seguinte, pelo que vi um tempo atrás o Ubuntu agora usa a libav que é
um fork do projeto FFmpeg. O comando ffmpeg ainda vai funcionar, mas
vai dar uma mensagem que ele está deprecado (algo assim).

Eu fiz da seguinte forma
avconv -i video.mp4 -vn -acodec libmp3lame audio.mp3

Daí deu o erro:
Unknown encoder 'libmp3lame'

Instalei o pacote ubuntu-restricted-extras e funcionou:
sudo apt-get install ubuntu-restricted-extras


É isso aí !

Marcelo

Offline EdvaldoSCruz

  • Usuário Ubuntu
  • *
  • Mensagens: 2.327
  • Deus é bom e JESUS CRISTO é o filho dEle.(Jo14:23)
    • Ver perfil
Re: Erro na execução do ffmpeg
« Resposta #3 Online: 29 de Junho de 2012, 09:35 »
segue a resposta que me enviaram na lista Ubuntu BR e funcionou perfeitamente

Seguinte, pelo que vi um tempo atrás o Ubuntu agora usa a libav que é
um fork do projeto FFmpeg. O comando ffmpeg ainda vai funcionar, mas
vai dar uma mensagem que ele está deprecado (algo assim).

Eu fiz da seguinte forma
avconv -i video.mp4 -vn -acodec libmp3lame audio.mp3

Daí deu o erro:
Unknown encoder 'libmp3lame'

Instalei o pacote ubuntu-restricted-extras e funcionou:
sudo apt-get install ubuntu-restricted-extras


É isso aí !

Marcelo


Como muitos que entram no mundo do Linux e entram em parafusos (99% das pessoas), por isso, não terem a atenção de Primeiramente lerem o manual do Ubuntu: Guia Iniciante para Ubuntu
Ignorância é não aceitar e não submeter-se a CRISTO JESUS.
Para os Iniciantes, como eu, links de solucionar problemas rapidamente.